Поиск по категориям

братья из гримсби 60 fps скачать торрент

 

 

 

 

Скачать Братья из Гримсби (2016) через торрент. О фильме: Сражения и битвы, которые могут выполнять только лучшие агенты спецслужб, порой могут быть сорваны, за счет родных людей и их неадекватности. Информация Название: Братья из Гримсби Оригинальное название: Grimsby Год выхода: 2016 Жанр: Боевик, комедия Режиссер: Луи Летерье Сценарий: Саша Барон Коэн, ФилТопик был перенесен из форума Новинки КиноПроката 60 FPS в форум Зарубежные фильмы 60 FPS Kryl. Размер: 2,93 GB. Братья из Гримсби (расширенная версия) / Grimsby (Extended Cut) [2016, Боевик, комедия, BDRip] скачать торрент бесплатно и без регистрации. Скачать на высокой скорости Братья из Гримсби / Grimsby (2016) BDRip 1080p, жанра Боевики, размером в 9.23 GB из раздела Фильмы, через торрент файл. Боевики, комедии, приключения. В ролях: Саша Барон Коэн, Марк Стронг, Ребел Уилсон и др. Картина « Братья Гримсби» является работой режиссера Луи Летерье, известного такими популярными фильмами, как Иллюзия обмана, Перевозчик и Денни Цепной пес. Представляем торрент Братья из Гримсби в хорошем качестве.Проф. (полное дублирование). MKV. 4.60 ГБ. скачать.Продолжительность: 01:23:12 Формат: MKV Видео кодек: MPEG-4 Аудио кодек: AC3 Видео: 1920x808, 9778 Kbps, 23.976 fps Аудио: Аудио 1 торрент трекер » Фильмы » Фильмы 2016 года » Братья из Гримсби / Grimsby (2016).

Название: Братья из Гримсби Оригинальное название: Grimsby Год выхода: 2016 Жанр: боевик, комедия Режиссёр: Луи Летерье В ролях: Саша Барон Коэн, Марк Стронг, Ребел Скачивайте любимые фильмы, мультфильмы, сериалы через торрент на orutor.org и рассказывайте о нас друзьям, знакомым, делитесь в сети.Информация о фильме Название: Братья из Гримсби Оригинальное название: Grimsby Год выхода: 2016 Жанр: Боевик Качество видео: BDRip-AVC [Grimsby (2016) Blu-ray CEE 1080p AVC DD5.1 HDCLUB] Формат видео: MKV Видео кодек: AVC Аудио кодек: AC3 ВидеоСкачать бесплатно через торрент Фильмы, Сериалы, Игры, Музыку, Софт и многое другое на KRUTOR.NET open the torrent tracker. Скачать фильм Братья из Гримсби через торрент бесплантно в хорошем качестве Описание:Сверхсекретная операция, которую выполняет образцовый спецагент, с треском провалена из-за некстати свалившегося на его голову Детали торрентов. Имя: Скачать торрент Братья из Гримсби / Grimsby (2016) BDRip 1080pИнформация о фильме Название: Братья из Гримсби Оригинальное название: Grimsby ГодФайл Кодек: MPEG-4 Качество: BDRip 1080p Видео: 1920x802, 11.6 Mbit/s, 23.976 fps Звук --Братья из Гримсби / Grimsby--«One secret agent.Хотите скачать бесплатно? Зарегистрируйтесь на сайте (ссылка на регистрацию). Pirat.ca - самый быстрый торрент трекер в рунете! Скачать bratya-iz-grimsbi-grimsby-2016-web-dl-1080p-d-zvuk-s-camrip. torrent U Магнитная ссылка Размер: 3.04 GB Раздают: 200 Качают: 325 Добавлен: 2016-05-24 15:08:16. Братья из Гримсби / Grimsby. Страна: Великобритания Австралия Производство: Columbia 368 60.

Торрент-трекер. Поиск. Регистрация | Восстановить пароль.Скачать bratia.gremsbee.2o16.d.hdrip.14oomb.avi.torrent Как тут качать? Братья из Гримсби / Grimsby (2016) торрент. Название: Братья из Гримсби Оригинальное название: Grimsby Год выхода: 2016 Жанр: боевик, комедия Режиссёр: Луи Летерье В ролях: Саша Барон Коэн, Марк Стронг, Ребел Уилсон, Пенелопа КрусКадры из фильма. Скачать фильм Братья из Гримсби (2016) через торрент Смотреть онлайн, Скачать через торрент фильм Братья из Гримсби / Grimsby (2016) бесплатно, без регистрации, без смс в хорошем качестве.

Описание сюжета фильма: Сверхсекретная операция, котор. Скачать торрент-файл Братья из Гримсби. Название: Братья из Гримсби / Grimsby (2016) BDRip-AVC от ExKinoRay | Лицензия.AVI. Видео: XviD, 688x288, 23.976 fps, 1117 kbps. АудиоСкачать. Загрузка начнется в течение 5 сек. 4.60 GB. Скачал сам?! Дай скачать другим, не уходи с раздачи!!! Информация о фильме Название: Братья из Гримсби Оригинальное название: Grimsby Год выхода: 2016 Жанр: Боевик, комедия Режиссер: Луи Летерье В ролях: Саша Барон Коэн, Марк Стронг, Ребел Уилсон, Пенелопа Крус Rus-media.org - открытый торрент трекер - скачивайте любые торренты и смотрите фильмы ОНЛАЙН без регистрации и рекламы.Bit rate : 101 bps Count of elements : 1128 Stream size : 60.8 KiB (0) Title : FULL Language : Russian Default : No Forced : No Text 3 ID : 8 Format : UTF-8 Братья из Гримсби / The Brothers Grimsby 720p HD Лицензия скачать торрент без регистрации и бесплатно!60. 1. 4.60 GB. 0.Что-бы бесплатно и без регистрации скачать Братья из Гримсби (2016) через торрент - воспользутейсь данной инструкцией. Братья из Гримсби (2016) BDRip скачать торрент.Качество: BDRip Видео: 720x304, 23.976 fps, XviD build 65 2047 kbps Аудио: 48 kHz, AC3 Dolby Digital, 3/2 (L,C,R,l,r) LFE ch, 448 kbps Размер: 1,46 Gb.Назад. 60.Как скачивать через торрент? Как скачать отдельный файл? Просмотр торрента онлайн. Название: Братья из Гримсби. Оригинальное название: Grimsby. Год выхода: 2016.Кодек: MPEG-4. Качество: BDRip 720p. Видео: 1280x536, 9107 Кbit/s, 23.976 fps. ЗвукТоррент: Зарегистрирован. Статус: v проверено. .torrent скачан: 26 раз. Название: Братья из Гримсби Оригинальное название: Grimsby Год выхода: 2016 Жанр: боевик, комедия Режиссёр: Луи Летерье В ролях: Саша Барон Коэн, Марк Стронг, Ребел Уилсон, Пенелопа КрусКадры из фильма. Скачать фильм Братья из Гримсби (2016) через торрент Боевики, комедии, фильмы 2016. Режиссер: Луи Летерье. В ролях: Саша Барон Коэн, Марк Стронг, Ребел Уилсон и др. В Англии живут два брата. Как это часто бывает, родные по крови, они совершенно не похожи друг на друга. Даже не общаются толком. Боевик, комедия, приключения. Режиссер: Луи Летерье. В ролях: Саша Барон Коэн, Марк Стронг, Ребел Уилсон и др. В неблагополучном портовом городишке Гримсби живут весьма асоциальные личности. скачать торрентом » Фильмы » Фильмы 2016 года » Братья из Гримсби / Grimsby (2016).Название: Братья из Гримсби Оригинальное название: Grimsby Год выхода: 2016 Жанр: боевик, комедия Режиссёр: Луи Летерье В ролях: Саша Барон Коэн, Марк Стронг, Ребел Торрент трекер » Скачать Братья из Гримсби / Grimsby (2016) BDRip торрент .Название: Братья из Гримсби Оригинальное название: Grimsby Год выпуска: 2016 СтранаКачество: BDRip-AVC Формат: MKV Видео: AVC, 1024x428 (2.40:1), 1840 kbps, 23,976 fps, 0,175 bpp Аудио Для вашего удобства мы сделали разделы, торрент фильмы которые можно скачать через торрент, у нас самый большой Игровой форум для геймеров,где находятся все геймерыСтол заказов. Набор в команду. Братья из Гримсби / Grimsby (2016) BDRip 1080p | iTunes. torrent.из-за некстати свалившегося на его голову неадекватного брата - оголтелого футбольного фаната и полного беспредельщика.Качество: BDRip-AVC Формат: MKV Видео: AVC, 1008x420 (2,40:1), 2065 kbps, 23,976 fps, 0.203 Скачать торент на большой скорости, торент игры, торент фильмы, торрент музыка, книги торент, сборники софта, wallpaper обои для рабочего стола » Фильмы » Боевики » Братья из Гримсби / Grimsby (2016) HDRip | Лицензия.60. Боевик, комедия. Режиссер: Луи Летерье. В ролях: Саша Барон Коэн, Марк Стронг, Ребел Уилсон и др. Сверхсекретная операция, которую выполняет образцовый спецагент, с треском провалена из-за некстати свалившегося на его голову неадекватного брата - оголтелого футбольного Комедии, боевики. Информация о фильме Название: Братья из Гримсби Оригинальное название: Grimsby Год выхода: 24 февраля 2016 Жанр/Категория: боевик, комедия Страна/Студия: Великобритания, Австралия / Big Talk Productions, Columbia Pictures Наименование: Братья из Гримсби Оригинальное наименование: Grimsby Произведено: Великобритания, Австралия Категория: боевик, комедияУходя с раздачи, ты не даешь скачать этот файл другим пользователям. Помощь в раздаче - стимул к созданию новых торрентов. Год выпуска фильма: 2016 Жанры: боевик, комедия, приключения Режиссер: Луи Летерье В ролях: Саша Барон Коэн, Марк Стронг, Ребел Уилсон, Пенелопа Крус, Айла Фишер, Габури Сидибе, Аннабелль Уоллис, Иэн МакШейн, Дэвид Хэрвуд Скачать торрент-файл Братья из Гримсби. Название: Братья из Гримсби / Grimsby (2016) BDRip-AVC от ExKinoRay | Лицензия.AVI. Видео: XviD, 688x288, 23.976 fps, 1117 kbps. АудиоСкачать. Загрузка начнется в течение 5 сек. 4.60 GB. Как скачивать через торрент? Как скачать отдельный файл из торрента?Информация о фильме: Название: Братья из Гримсби Оригинальное название: Grimsby Год выходаФайл: Кодек: MPEG-4 Качество: BDRip 1080p Видео: 1920x802, 11.6 Mbit/s, 23.976 fps Звук: Аудио 01 Скачать Братья из Гримсби / Grimsby (2016) BDRip 1080p от ExKinoRay | D, Afps Color space : YUV Chroma subsampling : 4:2:0 Bit depth : 8 bits Scan type : Progressive BitsText Duration : 1h 21mn Bit rate : 101 bps Count of elements : 1128 Stream size : 60.8 KiB (0) Title : FULL Language Название: Братья из Гримсби Оригинальное название: Grimsby Год выхода: 2016 Жанр: боевик, комедия Режиссер: Луи Летерье В ролях: Саша Барон Коэн, Марк Стронг, Пенелопа Крус, Ребел Уилсон, АйлаСкачать через торрент Братья из Гримсби. Название файла торрента. Братья из Гримсби / Grimsby. Страна: Великобритания [img]httpsize : 7.60 MiB (17) Language : English Default : No Forced : No.1. Качаем UTorrent версии 2.0 и выше 2. После установки, жмем на ссылку Скачать торрент. Фильмы скачать торрент » Комедии » Братья из Гримсби без регистрации. Братья из Гримсби. Я нашёл ошибку! Другое качество . Трейлер. Кадры из фильма. Отзывы 5. Похожие. У нас вы можете скачать торрент Братья из Гримсби / Grimsby (2016) BDRip 1080pВидео: 1920x800, 11000 Kbps, 23.976fpsАудио 1: Русский (АС3, 6 ch, 384 Кбит/с) Дублированный iTunes Скачать торрент. Смотреть трейлер. Информация о фильме Название: Братья из Гримсби Оригинальное название: Grimsby Год выхода: 2016 Жанр: Боевик, комедия РежиссерСкачать похожие торренты. Охота на монстра / Monster Hunt (2015/BDRip) 720p, 60fps Кунг-фу Панда 3 Название: Братья из Гримсби Оригинальное название: Grimsby Год выхода: 2016 Жанр: боевик, комедия Режиссёр: Луи Летерье В ролях: Саша Барон Коэн, Марк Стронг, Ребел Уилсон, Пенелопа КрусКадры из фильма. Скачать фильм Братья из Гримсби (2016) через торрент Крупнейший Нижегородский торрент трекер - скачивайте любые торренты и смотрите фильмы ОНЛАЙН без регистрации и рекламы.Информация о фильме Название: Братья из Гримсби Оригинальное название: Grimsby Год выхода: 2016 Жанр: боевик, комедия Режиссер: Луи Фильмы, боевик, комедия. Режиссер: Луи Летерье. В ролях: Саша Барон Коэн, Марк Стронг, Ребел Уилсон и др. Сверхсекретная операция, которую выполняет образцовый спецагент, с треском провалена из-за некстати свалившегося на его голову неадекватного брата Добавлено: HDRip / BDRip 720p / BDRip 1080p - Лицензия Название: Братья из Гримсби Оригинальное название: Grimsby Год: 2016 Страна: Великобритания Режиссер: Луи Летерье В главных ролях: Айла Фишер, Пенелопа Крус, Ребел Уилсон, Марк Стронг, Саша Барон Коэн Больше не нужно искать как скачать с рутор игры, новинки фильмов, или же любимые сериалы через торрент.Информация о фильме Название: Братья из Гримсби Оригинальное название: Grimsby Год выхода: 2016 Жанр: боевик, комедия Режиссер: Луи Летерье В ролях Информация о фильме Название: Братья из Гримсби Оригинальное название: Grimsby Год выхода: 2016 Жанр: боевик, комедия Режиссер: Луи Летерье В ролях: Саша Барон Коэн, Марк Стронг, Пенелопа Крус, Ребел Уилсон, Айла Фишер, Габури Сидибе, Аннабелль Уоллис, Иэн 60.Вы находитесь на странице раздела с фильмами в формате MP4, где можете скачать фильм Братья из Гримсби / Grimsby (2016) MP4 на андроид абсолютно бесплатно.Скачайте torrent файл и наслаждайтесь высоким качеством!FPS. Shooter. Horror.

Схожие по теме записи: